Index Of Metallica Flac

The Chick Corea Akoustic Band - Alive (1991) [FLAC] The Adverts - The Punk Singles Collection (1997) [FLAC] The Grateful Dead - The Devils Garden (1994) [FLAC] Stevie Ray Vaughn And Buddy Guy - See You Later (1997) [FLAC] The Charlatans UK - Some Friendly (1990) [FLAC] Tony Orlando And Dawn - Prime Time (2005) [FLAC]. com File Share Search Engine. Le troisième album de Metallica est un condensé compact et puissant de maîtrise technique, créativité et de riffs légendaires. Index of /Mp3/ Name Size Date-Time Type Enter Sandman. Hier gibt's die Offiziellen Deutschen Charts in ihrer ganzen Vielfalt. 99 prebeta 5 from 4. Metallica - And Justice for All (Remastered Deluxe Box Set) (2018) [FLAC CD] 5. It is available in multiple formats on that page, including FLAC. FLAC music for free and without tedious registration! Download flac music in lossless quality. mp3: Badlands: Dreams in. Leaked Release - June 5, 2020 Genre - Melodic Hardcore, Metalcore Quality - MP3, 320 kbps CBR / FLAC *Debut EP from this band, show them some love!* Tracklist: 1. 8 GB Metallica Discography STUDiO [2018] 10 CD FLAC 7. Written-By - Justnyce. Retrieved June 16, Encyclopedia of Popular Music. Metallica - Ride The Lightning (1984) Remastered FLAC / MP3 Band: Metallica. Note that the compression ratios of all lossless codecs falls in a quite narrow range; the difference between the very best and very worst is only around 7%, and only 4% for the practical codecs. Metallica - Metallica with Michael Kamen (2000 [DVD9 PAL] Size : 15. 7 MB) 03 - The Thing That Should Not Be. 2020 intmusic. This is a dedicated thread for the back catalog hi-res downloads available on Metallica. 8M Six Feet Under - Gri. Scene FLAC Music, muzik, musik scene Club, sets mix, music mp3s, WEB 320kbps Tracks, Private FTP Server, Muaix VIP, Dance Hits, 90s Various artists VA, EDM Live Radio, Music Stream, Electro House, Club Dance Music Mix, Electro House, Deep House, Chill Out, Trap, Bounce and much more. As you might think, parameters in this example means, that the track numbers will be forced to a length of 2 digits and numbers less than 10 are filled up with "0". HDtracks high resolution music downloads. Downloads will not work on mobile devices like an iPhone or iPad. Download Metallica August 20, 2016, U. Содержание индексной карты (. flac" WAVE TRACK 01 AUDIO TITLE "Die, Die My Darling" PERFORMER "Metallica" INDEX 01 00:00:00 TRACK 02 AUDIO TITLE "Sabbra Cadabra (Live)" PERFORMER "Metallica" INDEX 00 02:27:42 INDEX 01 02:29:57 TRACK 03 AUDIO TITLE "Mercyful Fate (Live)" PERFORMER "Metallica". Комплектация: Для каждого диска: FLAC со встроенным cue, отдельные cue для wav и flac,. The Stygian Deep 3. 0 MB) 04 - Welcome Home (Sanitarium). *edit* I will add the Target Special Edition tracks in FLAC as soon as I can. All links to. 0 % Test CRC 9164C276 Copy CRC 9164C276 Cannot be verified as accurate (confidence 1) [53196BC3], AccurateRip returned A659A636 Copy OK. Note that the compression ratios of all lossless codecs falls in a quite narrow range; the difference between the very best and very worst is only around 7%, and only 4% for the practical codecs. Forum: FLAC (lossles) Format. Daily updates of the music database. The first track is a never before released demo from Little Boy Blue & The Blue Boys. sk Password: No Tacklist:. But, then again, I'm not an iPod or FLAC or MP3 guy (I more into movies than music). The song deals with the theme of the struggle of the individual against the. Jamey Jasta) 08. flac" WAVE TRACK 01 AUDIO TITLE "Battery" PERFORMER "Metallica" REM COMPOSER "Metallica" INDEX 01 00:00:00 TRACK 02 AUDIO TITLE "Master Of Puppets" PERFORMER "Metallica" REM COMPOSER "Metallica" INDEX 01 05:12:27 TRACK 03 AUDIO TITLE "The Thing That Should Not Be" PERFORMER "Metallica" REM COMPOSER "Metallica". It was 50 years ago today, on August 8, 1969, that the world's most famous ban. MQA and FLAC are lossless encodings derived directly from our original production masters. flac", "02 - Sad But True. Metallica didirikan pertama kali di Los Angeles - Amerika Serikat dengan nama The Young of Metal Attack. wav Pre-gap length 0:00:02. There is some discussion already mixed into the existing thread for the KEA/RTL box sets and the general HDTracks thread. Filename F:\Works\CD-Rips\Metal Ballads Volume 1 (1993)\1\Various Artists - 1993 - Metal Ballads Volume 1\01. DTI redefines drug toxicity, identifies hepatotoxic drugs, gives mechanistic insights, predicts clinical outcomes and has potential as a screening tool. Oxford University Press. CD Universe. The EP was released to coincide with the band’s 30th anniversary shows, in which they released a new song for all 4 days of the shows; it was released as a download on iTunes on December 13, 2011. The wraparound storyline seems a tad forced at times, but the imagery and scenery are a welcome break from the flashing lights and grandeur of the concert performance. DATE: 2011-10-22. , Soulive, and Disco Biscuits in your choice of Flac (don't remember whether the compression setting is 5 or 6), MP3 (CBR 256), AAC (VBR 192), or WMA (VBR 192). Your Internet Provider is tracking your torrent activity!. DuckDuckGo is incredibly powerful, and I'm really excited about it. FLAC is a free codec in the fullest sense. This page explicitly states all that you may do with the format and software. Here's the complete bootleg series (3 volumes in total). As of December 2009, Metallica is the fourth best-selling music artist since the SoundScan era began tracking sales on May 25, 1991, selling a total of 52,672,000 albums in the United States alone. Aretha Franklin - The House That Jack Built flac album download free. Metallica's fifth, self-titled album, often called The Black Album, was released in 1991 and debuted at number one on the Billboard 200. CUE) PERFORMER "Skullgrinder"TITLE "Island of Lost Souls"FILE "Skulgrinder. To learn about small nuances hidden within the performances. Mit Level 8 werden FLAC-Dateien etwas besser komprimiert als mit Level 5. infoinfo lyrics deal mainly with occult and mystic concepts. > 28-Nov-2004 01:02 1. Charlie Hunter is making select albums available for download in FLAC and MP3 formats. We only index and link to content provided by other sites. Wolverine 05. 8M Slipknot - Before I. flac", "02 - Sad But True. 2 MB) 07 - Orion (Instrumental). Its best-known songs included ‘Battery,’ ‘Damage, Inc. Our passion for music demands that we offer it to our users in the best possible sound quality: lossless (FLAC 16-Bit/44. Zealot, Crusader of War 8. 2M: 002) Van Halen - Eruption. Bridges To Bremen is a full-length show performed by the Stones on the fifth and final leg of the Bridges To Babylon Tour while in Germany in September 1998. mp3 Metallica - 1984 - Ride The Lightning01 - Fight Fire With Fire. Though one of the slower tracks on the album, its chord progression is distinctly one of the heaviest ballads featured on the album. Your Internet Provider is tracking your torrent activity!. Parent Directory - 001) Led Zeppelin - Stairway to Heaven. " PERFORMER "Metallica" INDEX 01 28:31:62 TRACK 06 AUDIO. Zaawansowane wyszukiwanie. We only index and link to content provided by other sites. Le troisième album de Metallica est un condensé compact et puissant de maîtrise technique, créativité et de riffs légendaires. com This site does not store any files on its server. With Edgar Barradas, Kirk Hammett, James Hetfield, Metallica. org - The Unofficial Metallica site and your heaven for all things bootlegged!. We invite you to join us in this evaluation of future consumer delivery formats. All links to albums are provided. Complete collection of albums of famous music groups. Charlie Hunter is making select albums available for download in FLAC and MP3 formats. FILE "Metallica - Master Of Puppets 01. Our passion for music demands that we offer it to our users in the best possible sound quality: lossless (FLAC 16-Bit/44. 7 Myths about HD Music. Primitive Future by Misery Index, released 01 December 2015 Includes unlimited streaming via the free Bandcamp app, plus high-quality download in MP3, FLAC and more. DTI redefines drug toxicity, identifies hepatotoxic drugs, gives mechanistic insights, predicts clinical outcomes and has potential as a screening tool. Metallica - 17. Metallica - Metallica with Michael Kamen (2000 [DVD9 PAL] Size : 15. Even if the music contained within doesn't exactly float your boat, every single one of those albums has played its part in making. The Unforgiven 05. Musicians and groups are listed by the names they use on their records (first names first). Full HD Movies Download. Crucified 08. js is loaded or the webpage won't work. 2M Six Feet Under - Ame. HighResolutionMusic. Jan 19, · Provided to YouTube by Kontor New Media Due Ombre Lunghe · Ricky Gianco É Rock 'N' Roll ℗ Akka Music Edizioni Musicali s. mp3 1598 K 25/07/2004 21:12:02 audio/mpeg 3 Doors Down - Here Without You. flac w/ verify) Notes: This rip was created because of the backlash over the sound quality of the official release of Death Magnetic. The Chick Corea Akoustic Band - Alive (1991) [FLAC] The Adverts - The Punk Singles Collection (1997) [FLAC] The Grateful Dead - The Devils Garden (1994) [FLAC] Stevie Ray Vaughn And Buddy Guy - See You Later (1997) [FLAC] The Charlatans UK - Some Friendly (1990) [FLAC] Tony Orlando And Dawn - Prime Time (2005) [FLAC]. flac: Badlands: Dreams in the Dark: Youth Gone Wild: Heavy Metal Hits of the '80s, Vol. Yellowjackets – Time Squared. You lie, cheat and STEAL! Upon getting my Tool Discography: 11 Albums 1992-2019 MP3 320kbps CBR and FLAC Lossless Quality: MP3 320kbps CBR and FLAC Lossless with Lateralus 2001, 10,000 Days 2006 and the most recent album, Fear Inoculum 2019. Music catalogue, radio/streaming formats, licensing, streaming apps, analytics/reporting all included. Downlaod Metallica Greatest hits mega rar zip 320kbps flac exitos baixar. 0 % Test CRC E0013CA3 Copy CRC 312FD7E5 Track not present in AccurateRip database Copy OK Track 2. :: Size: 482 MB (flac). 1 kHz (Tracks) + FLAC 16 bit / 44. Our passion for music demands that we offer it to our users in the best possible sound quality: lossless (FLAC 16-Bit/44. zip to FLAC 3) converted FLAC to WAV @24/96 via Audacity 4) inserted WAV files in Sony Vegas (non-linear video editing program) on the Timeline 5) rendered separate projects for audio and video. Parent Directory-15-14-13-12-11-10-09-08-07-06-05-04-03-02-01: page 01 of 05 +01 +02 +03 +04 +05 +06 +07 +08 +09 +10 +11 +12 +13 +14 +15 <- Back | Next page ->. Directed by Wayne Isham. Le troisième album de Metallica est un condensé compact et puissant de maîtrise technique, créativité et de riffs légendaires. Download high resolution audio files from Norwegian 2L in stereo 96kHz, 192kHz, DXD, DSD and 5. This is in contrast to common audio compression schemes such as MP3 or AAC , which discard, or “lose,” portions of the digital audio information in order to create. IMAX 3D is the way to go! Almost everyone was amped in the theater and we were all pretty much rocking in our seat and singing along. flac files (self. 0 % Track quality 100. Album prices vary but tend to be $9. Although it concentrates on the best bootlegs I have downloaded in the last five years, the same sites and addresses used are where the bootlegs in the 100 greatest listing originated from. 2M Slaughter - You Are. They also prove that there is a Metallica riff for any type of sequence you will ever encounter in a film. Various - iNDEX04 flac album download free. Namtar - Наравне с Жизнью [Tape Rip 16Bit 44Khz] (2004) [FLAC] [Limited to 66] [Rip Off Productions - ROP006] Started by Ligfaerd. FLAC is a free codec in the fullest sense. 7 MB) 03 - The Thing That Should Not Be. ♫ [MP3 192] Metallica - St. Also, you can play quality at 32kbps, 128kbps, 320kbps, 500kbps, view lyrics and watch more videos related. Music lossless for lovers of good sound. Live Like An Angel - Die Like A Devil 09. If you run spectral analysis you will notice that some files are lossy sourced. Talk Talk - Laughing Stock download mp3. FLAC decoding is the fastest among lossless codecs and its compression is within 3% of even the most complex codecs. mp3 Phantom Lord. The band has sold an estimated 100 million records worldwide as of the release of their latest album, Death Magnetic. Here at Allflac. Downloads J-Rock J-Pop Music MP3/AAC/FLAC/ALAC. Halo On Fire Disc 2 1. Metallica - Nothing Else Matters. 99 prebeta 5 from 4. All audio shows are in lossless audio (FLAC format), whilst video has been formatted as DVD files ready to be burnt. 00 Peak level 100. Fade To Black (6:56) 5. mp3 2209 K 03/09/2004 15:04:57 audio/mpeg 4U2C - Hadirlah Kasih. URL consultato il 4 gennaio 2016. Home » Metal » Metallica - Metallica (1991) Metallica - Metallica (1991) By Buccaneer 2 comments *Also known as "The Black Album" tags: metallica, the black album, metallica album, 1991, flac, It is an index to content. The key word in FLAC is "lossless," which means that audio is encoded in FLAC without losing any of the frequency response, dynamic range or timbre of the original signal. For Whom The Bell Tolls (5:10) 4. Country: USA Year: 1991 Record Label: Elektra Records Catalog Number: 9 61113-2 Music Genre: Thrash Metal Rip Format: FLAC (Image + Cue + Log) Booklet Scans: Yes Rip Quality: Lossless Size Archive: ~ 462 MB Host: Yadi. When a Blind Man Cries 4. Bloodshot Eyes 10. 61 GB (FLAC Mch) + 1. Fightclubindex 21k cached similar. 3M Slaughter - Spend My. org 478 MB 2010-01-25 9 2 Metallica - 30th Birthday Chopped and Twisted(2CD) 2018 ak320. When a Blind Man Cries 4. Metallica - Metallica (Remastered) (2020) (FLAC) AKUMA - Started Jun 23 2020 18:43 Recent Topics; Last messages. It was recorded on April 21-22, 1999 at The Berkeley Community Theatre. Enjoy the music!. Metallica was formed by Lars Ulrich and James Hetfield in the fall of 1981. Remember Tomorrow 5. Exact Audio Copy V0. 2: Metal: Free Lossless Audio Codec: Badlands - Dreams In The Dark. Tracklist: 01. Performed: 08/ 16/ 2019. 4M Six Feet Under - The. Tokyo String Quartet and David Watkin. Ulrich (who originally went to the US to play tennis) had, during that summer, met Brian Slagel of Metal Blade Records and had secured an appearance on an upcoming compilation called Metal Massacre but had no band. The FLAC and Ogg FLAC formats themselves, and their specifications, are fully open to the public to be used for any purpose (the FLAC project reserves the right to set the FLAC specification and certify compliance). Welcome to Juno Download, a digital download store that boasts a staggeringly wide selection of songs, instrumentals and tools for DJs, electronic musicians and listeners alike. you won't get higher quality, just larger file sizes. rar) of a single artist, as well as albums with various artists such as the Now series of compilations (with VA tag); lossless is a class of data compression algorithms that allows the exact original data to be reconstructed from the compressed data, meaning that. Narzędzia forum. flac: Badlands: Dreams in the Dark: Youth Gone Wild: Heavy Metal Hits of the '80s, Vol. mp3: Autograph: Turn Up the Radio: Monsters of Rock, Metal: MPEG 1 Layer III: Badlands - Dreams in the Dark. Full music, album, mp3, clip downloads. Quality: FLAC 24 bit / 44. flac 239 MB Metallica - Death Magnetic - 07 - The Unforgiven III. To learn about small nuances hidden within the performances. com Password: without a password. Get access to over 600 exclusive live recordings with a nugs. Enjoy the music!. Parent Directory - 001) Led Zeppelin - Stairway to Heaven. 0 % Track quality 100. REM GENRE "Speed Metal, Thrash Metal" REM DATE 1983 REM DISCID 9A0C080A PERFORMER "Metallica" TITLE "Kill 'Em All" CATALOG 0042283814226 FILE "01 - Hit The Lights. com can download free live Download Metallica's first performance of "Cyanide" from the upcoming Death. DuckDuckGo is incredibly powerful, and I'm really excited about it. or FLAC(converted with foobar2000 to tracks) 24bit/88,2 kHz | Scans included | 1,33 GB. Metallica es una banda de Thrash Metal originaria de Los Ángeles, pero con base en San Francisco desde febrero de 1983. Music lossless for lovers of good sound. Moth Into Flame 5. (Audience FLAC) STONES TOUR MOP UP! Allied Productions 082, 2 LP Transfer: "STONES TOUR MOP UP!" 2 LP > DENON DP-300F TT > Cre. zip to FLAC 3) converted FLAC to WAV @24/96 via Audacity 4) inserted WAV files in Sony Vegas (non-linear video editing program) on the Timeline 5) rendered separate projects for audio and video. PERFORMER "Metallica" INDEX 01 08:15:27 TRACK 03 AUDIO TITLE "Welcome Home (Sanitarium)" PERFORMER "Metallica" INDEX 00 18:37:24 INDEX 01 18:37:25 TRACK 04 AUDIO TITLE "Cliff Burton Bass Solo" PERFORMER "Metallica" INDEX 00 25:09:64 INDEX 01 25:09:65 TRACK 05 AUDIO TITLE "Damage, Inc. 99 prebeta 5 from 4. PRINCE (2) PROCOL HARUM (1) Mega was the upload site worth the effort and I am not re-upping. sk Password: No Tacklist:. High Resolution Downloads, Classical Music, Jazz Music, Rare Audiophile, DSD Downloads, Pure Audio. Nothing Else Matters 09. Memento Mori 02. E-XYSTEM://CE Universally regarded as one of the most brutal technical death metal bands of the modern era, WORMED return with the new EP 'Metaportal. Parent Directory - 001) Led Zeppelin - Stairway to Heaven. FILE "Metallica - Master Of Puppets 01. See hi-res recording links: * Where to Download Free Hi-Res Audio. 2020 intmusic. flac files (self. Quality: FLAC (*image +. Download Metallica August 20, 2016, U. For Whom The Bell Tolls 04. Soror Dolorosa / UNI_FORM / The Last Cry / The Spiritual Bat / Winter Severity Index /Red Sun Revival / Aeon Sable / Arts Of Erebus / Sweet Emmengarde - Gotham Sounds Festival Vol. Year: 1991 Country: USA This website is an external content index. Simple Plan - Shut U. Yo uso "bitcomet" para bajar torrents, a traves de los torrents puedes bajas discos completos en mp3 o en Flac. Retrieved June 16, Encyclopedia of Popular Music. ♫ [MP3 192] Metallica - St. Ex-/VG+ Audience Recording:: CDr:: CBR 320 kbps & FLAC. DATE: 2011-10-22. Открывайте новую музыку каждый день. Metallica, influential American heavy metal band that helped develop the subgenre speed metal in the early and mid-1980s and was known for pushing genre boundaries. Quality: FLAC 24 bit / 44. Charlie Hunter is making select albums available for download in FLAC and MP3 formats. Band Name: Metallica Album Title: Black Album Total Playing Time: 01:02:38 Min. When a Blind Man Cries 4. Trinity MCMXLV 0530 13. 6 % Extraction speed 3. It was released as the second single from their eponymous fifth album Metallica (also known as The Black Album). Metallica - Master Of Puppets (10CD + 3LP + 2DVD + Cassette Box Set Blackened Records 2017) [Limited Edition] (2017) [FLAC] Started by ᛋᛗᛁᚱᚷᛖᛚ Replies: 0. 3M Slaughter - Spend My. mp3: Autograph: Turn Up the Radio: Monsters of Rock, Metal: MPEG 1 Layer III: Badlands - Dreams in the Dark. 62 KB Metallica 1992-07-04 Weedsport, NY01. :: Size: 482 MB (flac). infoinfo lyrics deal mainly with occult and mystic concepts. Harvester Of Sorrow 06. rar John Lee Hooker, Bessie Smith and many mor) - Box Set 10CD - 2004, FLAC. Need To Kill 03. All audio shows are in lossless audio (FLAC format), whilst video has been formatted as DVD files ready to be burnt. MP3 (MPEG1/2 Audio Layer 3) is an efficient and lossy compression format for digital audio, offers a variety of different bit rates, an MP3 file can also be encoded at higher or lower bit rates, with higher or lower resulting quality. Related Blog Posts. Wormed Metaportal, released 19 July 2019 1. 69 GB (DVD-A) + 3. Artist: Braids Title: Deep In the Iris Year Of Release: 2015 Label: Arbutus Records Genre: Pop/Rock, Rock Alternative & Indie Quality: MP3 320 kbps / FLAC (tracks) Total Time: 00:41:28 Total Size: 103. Nope, iTunes only supports audio like mp4, wav, aiff. Kidz Index - Set 10. mp3 06 - Escape. FLAC music for free and without tedious registration! Download flac music in lossless quality. Although it concentrates on the best bootlegs I have downloaded in the last five years, the same sites and addresses used are where the bootlegs in the 100 greatest listing originated from. Metallica is an American heavy metal band. To learn about small nuances hidden within the performances. Metallica didirikan pertama kali di Los Angeles - Amerika Serikat dengan nama The Young of Metal Attack. Pokaż wątki Pokaż posty. ’ Learn more about the band’s history and music. mp3: 26-Jul-2008 19:50 : 1. See hi-res recording links: * Where to Download Free Hi-Res Audio. mp3 Phantom Lord. 50+ videos Play all Mix - [HQ-FLAC] Metallica - The Unforgiven YouTube; One - Duration: 7:28. The entire Live Metallica concert catalog is now also available for unlimited on-demand streaming on nugs. We invite you to join us in this evaluation of future consumer delivery formats. Forum: FLAC (lossles) Format. En 2002 consiguieron un contrato de grabación con Sony BMG para la grabación de cinco discos. The Best Albums of 2018. MP3 of this album). Metallica, influential American heavy metal band that helped develop the subgenre speed metal in the early and mid-1980s and was known for pushing genre boundaries. Nothing Else Matters 09. ”The listener will search long and hard to find. Basically, Woof 3 can play all these formats easily which is a nice touch but really speaking it’s just marketing, as once you do mention these formats, you would instantly associate audiophile grade-ness to this speaker which isn’t the case. Master of Puppets was originally released on March 3rd, 1986, on Elektra Records and went on to become the first Metallica album to be certified Platinum by the RIAA. Pokaż wątki Pokaż posty. cue,log,scans) Bitrate: Lossless Time: 54:49 Full Size: 405Mb. Several formats are available for downloads (FLAC, ALAC, AIFF, WMA, WAV). ' Their first new material since 2016's crushing 'Krighsu' and the tragic passing of drummer G-Calero, 'Metaportal' delivers. Nama Metallica sendiri sebenarnya adalah nama yang diusulkan untuk sebuah majalah musik yang dicuri oleh Lars Ulrich sebelum majalah tersebut mendapat nama tersebut. PERFORMER “Metallica” INDEX 01 00:00:00 FILE “02. Schubert: String Quintet D. The highest quality of audio that you can download is flac. Leaked Release - June 5, 2020 Genre - Deathcore, Symphonic Death Metal Quality - MP3, 320 kbps CBR / FLAC Tracklist: 1. 1 kHz, similar to CD quality), as well as high resolution (24-Bit Hi-Res). Metallica is offering soundboard recordings of live shows in FLAC format. For Whom The Bell Tolls 04. Released on: Sitemap Hero Of The Day (Outta B Sides Mix) - Metallica - B-Level, >Resonate* - Sonic Collision, Jump For Joy - The Jacksons - Goin Places, Saved - Elvis Presley - Elvis-TV Special. 39 Gb Tracklist & Download Links. Simple Plan - Shut U. Enter Sandman 02. When a Blind Man Cries 4. Lossless Albums » Hi-Res 24 bit » Dive Index - Waving at Airplanes (2020) Hi-Res Genres: Hi-Res 24 bit / Downtempo / Ambient/ New Age / Instrumental 2-06-2020, 16:10 67 Music_land All music Dive Index. Metallica - Bootleg Tracks - 06 - Hunger. Band Name: Metallica Album Title: Black Album Total Playing Time: 01:02:38 Min. Replies: 0 Views: 616 02 February 2014, 09:25:45 by Ligfaerd: Metallica - Metallica (Black Album) (1991) [Tape Rip 16Bit 44Khz] [FLAC] [Vertigo - 525 510 022-4] Started by Ligfaerd. Get access to over 600 exclusive live recordings with a nugs. The album has been certified 6x Platinum in the United States and has sold over 10 million copies worldwide. Index of /Mp3/ Name Size Date-Time Type Enter Sandman. 2M: 002) Van Halen - Eruption. [Flac] Heavy Metal + Cue - Progetto TNTMetal Autore: MotorHeadTitolo: DiscografiaAnno: Anni 1977-2010Genere: Heavy MetalELENCO ALBUM: 1977 Motorhead 1979 Overkill 1979 Bomber 1979 On Parole 1980 Ace Of Spades 1982 Iron Fist 1983 Another Perfect Day 1986 Orgasmatron 1987 Rock'n'Roll 1991 1916 1992 March Or Die 1993 Bastards 1995 Sacrifice 1996 Overnight Sensation 1998 Snake Bite Love 2000 We. Oznacz jako przeczytany Zobacz główne forum; Przeszukaj to forum. Bruce Springsteen Maple Leaf Gardens, Toronto, Canada November 16, 1978 (Recorder 2 - mackeck Master via JEMS) JEMS 2014 Transfer: Maxell UD-90 master cassettes > Nakamichi CR-7A (azimuth-adjusted) > Sound Devices UBSPre2 (24/96 Audacity 2. Simple Plan - Shut U. Here at Allflac. Metallica - Ride The Lightning (1984) Remastered FLAC / MP3 Band: Metallica. ALAC Downloads ALAC 176kHz/24bit Download ALAC 192kHz/24bit Download ALAC 44kHz/24bit Download DSD Downloads DSD (Double Rate) 5. 6MHz/128fs Download DSD (Quad Rate) 11. mp3 30-Jan-2008 20:35 ACDC - She Shook Me All Night Long(Remix featuring Bon Jovi, Metallica, Nirvana, Def Leppard, Van Halen, and Guns N' Roses). You may have to convert the files to MP3 first; I'm pretty sure the freeware app Switch will do this, as can MediaCoder (also free). Bank Stadium, Minneapolis, MN MP3 FLAC. Music Theme Maker. Soror Dolorosa / UNI_FORM / The Last Cry / The Spiritual Bat / Winter Severity Index /Red Sun Revival / Aeon Sable / Arts Of Erebus / Sweet Emmengarde - Gotham Sounds Festival Vol. The band has experienced several line-up changes, with frontman, vocalist, guitarist and principal songwriter Robert Smith being the only constant member. Metallica - Death Magnetic GHIII Remix by Moderus in FLAC If this is your first visit, be sure to check out the FAQ by clicking the link above. Lady Gaga - Chromatica [Deluxe Edition] 2020 FLAC : Metallica - The Best of Metallica [2020]. Metallica | Discografía completa | FLAC + MP3 320 kbps [005] Pink Floyd | Discografía completa | CD & Vinyl | Flac + MP3 320 kbps [076] AC/DC | Discografía completa | Flac + MP3 320 kbps [080]. U2 - Achtung Baby download mp3. 1849 downloads at 22 mb/s. Flac is the auido track of Flv video. Parent Directory-15-14-13-12-11-10-09-08-07-06-05-04-03-02-01: page 01 of 05 +01 +02 +03 +04 +05 +06 +07 +08 +09 +10 +11 +12 +13 +14 +15 <- Back | Next page ->. bov1 - Oleg Beloglazov from Russia, Saratov City I NEED ONLY JUDAS PRIEST HALFORD FIGHT TWO BOOTLEGS !. PERFORMER "Metallica" ISRC QMKHM1700236 INDEX 01 39:46:22. mp3 1634 K 25/07/2004 21:12:22 audio/mpeg 4U2C - Dusta. Metallica - Metallica (1991) FLAC / MP3 Artist: Metallica. metallica bootlegs from 1991 hosted on extabit, rapidgator, rapidshare, lumfile, netload, uploaded and torrent with keygen, crack and serial. Quality: FLAC 24 bit / 44. 1 kHz (Tracks) Artist: Green-House Title: Six Songs for Invisible Gardens Released: 2020 Style: Ambient, Plant Music RAR Size: 310 Mb Tracklist & Download Links. Sad But True 03. Feel free to request songs by commenting. 1kHz FLAC (tracks) Total Time: 01:40:57 Total Size: 705 MB / 1. Tool-10000Days-CD-FLAC-2006-SCORN. "Ride the Lightning" with musical icons Metallica and over 20 other rock ing acts in an all new Guitar Hero experience -- Guitar Hero: Metallica. Tematy na forum. Hunted Like the Prey that You Are (Feat Mark Kloeppel, Misery Index) Latest Warpath release. Bank Stadium, Minneapolis, MN MP3 FLAC. to - Homeland Security Investigations. Full music, album, mp3, clip downloads. 1 kHz (Tracks) + FLAC 16 bit / 44. net | live music downloads mp3 flac The first 10000 fans to register at MatisyahuLive. Nope, iTunes only supports audio like mp4, wav, aiff. Full HD Movies Download. FLAC (/ˈflæk/; Free Lossless Audio Codec) is an audio coding format for lossless compression of digital audio, and is also the name of the reference codec implementation. 5 Mixed by Helena Hauff (2020) FLAC Style: Techno Release Date: 2020 RAR / ZIP Size: 1999 MB. 1994 - Middletown,Orange County Fairgrounds [AUD - FLAC] Metallica - 24. Metallica (commonly known as The Black Album) is the fifth studio album by American heavy metal band Metallica, released on August 12, 1991, through Elektra Records. Various - Juice CD Volume 53 FLAC version. net, filesonic. Ladyhawke - Love Don`t Live Here Lyrics. Metallica - Master Of Puppets (10CD + 3LP + 2DVD + Cassette Box Set Blackened Records 2017) [Limited Edition] (2017) [FLAC] Started by ᛋᛗᛁᚱᚷᛖᛚ Replies: 0. 2MHz/256fs Download DSD (Single Rate) 2. mp3 Seek & Destroy. Metallica - So Fucking What. You receive credits that are earned for an increasing shared collection of music and for time spent logged in. Now That We're Dead 4. net This site does not store any files on its server. The band has won nine Grammy Awards, and has had five consecutive albums debut at number one on the Billboard 200, making Metallica the first band to do so; this record was later matched by the Dave Matthews Band. [Flac] Heavy Metal + Cue - Progetto TNTMetal Autore: MotorHeadTitolo: DiscografiaAnno: Anni 1977-2010Genere: Heavy MetalELENCO ALBUM: 1977 Motorhead 1979 Overkill 1979 Bomber 1979 On Parole 1980 Ace Of Spades 1982 Iron Fist 1983 Another Perfect Day 1986 Orgasmatron 1987 Rock'n'Roll 1991 1916 1992 March Or Die 1993 Bastards 1995 Sacrifice 1996 Overnight Sensation 1998 Snake Bite Love 2000 We. Artist: Mezcaleros Title Of Album: The Preacher Year Of Release: 2020 Label (Catalog#): Philippe Marseille [TBMP20200318] Country: USA Genre: Blues Rock, Southern Rock Quality: FLAC (*tracks +. Artist: Metallica Release: August 20, 2016 - U. 1 though, i guess you just have to suck it and see with the different on-the-fly transcoding programs or alternativly transcode your flac's to wmalossless But will encoding it to WMA Lossless drop the 5. Feel free to request songs by commenting. Convert your MP3 files to WAV audio. Magnetic' CD to tracks from the album used for Guitar Hero. 1 GB Files : 17 Seeders : 1 Leechers : 4 Added : 1 week image 1of2/METALLICA. Hunted Like the Prey that You Are (Feat Mark Kloeppel, Misery Index) Latest Warpath release. Mit Level 8 werden FLAC-Dateien etwas besser komprimiert als mit Level 5. You may have to register before you can post: click the register link above to proceed. Metallica - 30th Anniversary Show Recap (December 7, 2011 - Live at the Fillmore) - MetOnTour, su YouTube. This is in contrast to common audio compression schemes such as MP3 or AAC , which discard, or "lose," portions of the digital audio information in order to create. 8 GB Metallica Discography STUDiO [2018] 10 CD FLAC 7. 02 - Le Dome - Marseille, France [MP3]. Metallica - Metallica (The Black Album) (1991~2015) [24-192] [FLAC HI-Res]. METALLICA's LARS ULRICH Breaks Silence On 'Death Magnetic' Sound Quality Controversy. Recorded in December 1961, this was recorded in the back room of Dick Taylors’ parents home with the band consisting of Mick Jagger on vocal, Keith Richard and Bob Beckwith on guitars, Dick Taylor on bass and Allen Etherington on percussion. net subscription; start your FREE 30-day trial now!. Through The Never 08. Lossless Albums » Hi-Res 24 bit » Dive Index - Waving at Airplanes (2020) Hi-Res Genres: Hi-Res 24 bit / Downtempo / Ambient/ New Age / Instrumental 2-06-2020, 16:10 67 Music_land All music Dive Index. > 28-Nov-2004 01:02 1. Bank Stadium, Minneapolis, MN MP3 FLAC. DATE: 2011-10-22. Album: This website is an external content index. Full music, album, mp3, clip downloads. The entire Live Metallica concert catalog is now also available for unlimited on-demand streaming on nugs. 2M Slaughter - You Are. Manunkind 4. Below is a screenshot comparison of my iTunes purchased version of "Hard Knock Life" and on the right a FLAC version from Qobuz. Комплектация: Для каждого диска: FLAC со встроенным cue, отдельные cue для wav и flac,. HDtracks high resolution music downloads. This is a complete alphabetical list, as of December 2016. Written-By - Justnyce. 50+ videos Play all Mix - [HQ-FLAC] Metallica - The Unforgiven YouTube; One - Duration: 7:28. Apocalyptica-Plays_Metallica_By_Four_Cellos-Remastered-CD-FLAC-2016-FORSAKEN Quality: 849 Kbps @ 44 Khz , N/A Total Playtime: 58:16 Filesize: 353 MB. 6M: 003) Lynyrd Skynyrd - Freebird. Metallica (commonly known as The Black Album) is the fifth studio album by American heavy metal band Metallica, released on August 12, 1991, through Elektra Records. metallica - MetOnTour 2017 (3 концерта) [24-bit] File Size : 4. to - Homeland Security Investigations. 2M Six Feet Under - Ame. Metallica | Discografía completa | FLAC + MP3 320 kbps [005] Pink Floyd | Discografía completa | CD & Vinyl | Flac + MP3 320 kbps [076] AC/DC | Discografía completa | Flac + MP3 320 kbps [080]. Metallica / Master Of Puppets (1995 USA Elektra 9 60439-2). We only index and link to content provided by other sites. mp3 04 - Fade To Black. You may have to convert the files to MP3 first; I'm pretty sure the freeware app Switch will do this, as can MediaCoder (also free). Le nouveau Metallica frappe fort et juste. Various - iNDEX04 flac album download free. Loading Error · · · · · · · · · ·. Enable JS in your browser! You may be blocking important javascript components, check that main. 2020 intmusic. Yo uso "bitcomet" para bajar torrents, a traves de los torrents puedes bajas discos completos en mp3 o en Flac. Download Metallica August 20, 2016, U. 8M Six Feet Under - Gri. The single was released as a CD maxi on June 2, 2000 under the Hollywood Records label. Routes (feat. Halo On Fire Disc 2 1. In Belgium and Italy, the song was released by Edel-Mega Records. Exact Audio Copy V0. CUE) PERFORMER "Skullgrinder"TITLE "Island of Lost Souls"FILE "Skulgrinder. 1 kHz, similar to CD quality), as well as high resolution (24-Bit Hi-Res). Written-By - Justnyce. Ronnie Rising Medley 3. Forum: FLAC (lossles) Format. Parent Directory - 001) Led Zeppelin - Stairway to Heaven. Retrieved July 11, Ultimate Metallica. Entre sus principales influencias, destacan bandas como Metallica, Iron Maiden y Slayer. Complete collection of albums of famous music groups. flac w/ verify) Notes: This rip was created because of the backlash over the sound quality of the official release of Death Magnetic. Simon and Schuster. Parent Directory-15-14-13-12-11-10-09-08-07-06-05-04-03-02-01: page 01 of 05 +01 +02 +03 +04 +05 +06 +07 +08 +09 +10 +11 +12 +13 +14 +15 <- Back | Next page ->. flac" WAVE TRACK 01 AUDIO TITLE "Battery" PERFORMER "Metallica" REM COMPOSER "Metallica" INDEX 01 00:00:00 TRACK 02 AUDIO TITLE "Master Of Puppets" PERFORMER "Metallica" REM COMPOSER "Metallica" INDEX 01 05:12:27 TRACK 03 AUDIO TITLE "The Thing That Should Not Be" PERFORMER "Metallica" REM COMPOSER "Metallica". -Source material: Tracks 1-8: FLAC Lossless ("Metallica - Master Of Puppets (Remastered) (FLAC) {Team Gnostic}")-New Encoding: FLAC Lossless (In other words, full quality compressed to generally about 1/2 of an Audio CD size). Band Name: Metallica Album Title: Black Album Total Playing Time: 01:02:38 Min. Various - Juice CD Volume 53 MP3 version. 477 Total de Membros. 12" LP version of Spineless Pigs. Subgenre: Concertos. Following their much-lauded Beethoven cycle, the members of the Tokyo String Quartet are joined by cellist David Watkin in this distinguished reading of Schubert's Quintet in C major - the last and perhaps the most haunting. Nothing Else Matters 09. Tyler, The Creator - Scum Fuck Flower Boy download mp3. Grails 2019. Album: Ride The Lightning (Remastered) Year: 1984 Remastered: 2016 This website is an external content index. DATE: 2011-10-22. 1432 downloads at 19 mb/s. Quality: FLAC 24 bit / 44. Deutsche Grammophon. 2M Six Feet Under - Ame. Wolverine 05. 8M Six Feet Under - Gri. It Won't Be Long - 02:18 02. This page explicitly states all that you may do with the format and software. Das führt dazu, dass die Konvertierung etwas länger dauert und die Dateien etwas kleiner werden. Even if the music contained within doesn't exactly float your boat, every single one of those albums has played its part in making. :: Size: 482 MB (flac). x) ist das aber kein großes Problem, da diese eine entsprechend aktuelle FLAC-Library verwenden, welche wesentlich schneller ist als. 1 kHz (Tracks) Artist: Monet192 Title: Medical Heartbreak Released: 2020 Style: Rap/Hip-Hop RAR Size: 273 Mb + 153 Mb Album information I like. Explore releases from the Not On Label (Metallica Self-released) label. Oxford University Press. Manunkind 4. net, filesonic. The demos were included on a bonus disc titled Demo Magnetic , released with a different "experience" version of Death Magnetic. This is a dedicated thread for the back catalog hi-res downloads available on Metallica. Loading Error · · · · · · · · · ·. wav) > dbPowerAmp (. Vinyl Rip | FLAC Tracks @24bit/96kHz, Hi-Res | FLAC Tracks @16bit/44. com can download free live Download Metallica's first performance of "Cyanide" from the upcoming Death nugs. 1 kHz, similar to CD quality), as well as high resolution (24-Bit Hi-Res). Music lossless for lovers of good sound. 0 MB) 02 - The End Of The Line. Las dificultades económicas marcaron un cambio en la dirección de su música y en el nombre de la banda por el de Bullet For My Valentine. Metallica performed "I Disappear" 92 times from June 3, 2000 through August 10, 2013. Oh, FLAC! I was very curious at first what the FLAC, APE, WAV support that this device claims is about. > 24-Nov-2004 16:27 1. Tokyo String Quartet and David Watkin. flac” WAVE TRACK 02 AUDIO TITLE “Sad But True” PERFORMER “Metallica” INDEX 01 00:00:00 FILE “03. HighResolutionMusic. Leaked Release - June 5, 2020 Genre - Deathcore, Symphonic Death Metal Quality - MP3, 320 kbps CBR / FLAC Tracklist: 1. Download Metallica August 20, 2016, U. Trinity MCMXLV 0530 13. Metallica a eu une grande influence sur le développement du métal et est inclus (avec Slayer, Megadeth et Anthrax dans le «Big Four du thrash metal». Исполнитель: Metallica Альбом: Load Жанр: Thrash Metal Год выпуска: 1996 Формат: FLAC (image +. Define mogul. The recording is a binaural recording intended especially for headphone use. In Belgium and Italy, the song was released by Edel-Mega Records. 1849 downloads at 22 mb/s. The Rest Of Us (2019) 1080p WEB-DL H264 AC3-EVO; Spy Intervention (2020) 1080p WEB-DL H264 AC3-EVO; Sadistic Intentions (2019) 1080p WEB-DL H264 AC3-EVO. On this release, Metallica's select favorites unfold like never before with the eloquent backing of The San Francisco Symphony. Don't Tread On Me 07. The FLAC and Ogg FLAC formats themselves, and their specifications, are fully open to the public to be used for any purpose (the FLAC project reserves the right to set the FLAC specification and certify compliance). Released on: Sitemap Hero Of The Day (Outta B Sides Mix) - Metallica - B-Level, >Resonate* - Sonic Collision, Jump For Joy - The Jacksons - Goin Places, Saved - Elvis Presley - Elvis-TV Special. The wraparound storyline seems a tad forced at times, but the imagery and scenery are a welcome break from the flashing lights and grandeur of the concert performance. 37 > FLAC 01 Jailbreak 02 It's Only Money 03 Emerald 04 The Boys Are Back In Town 05 Still In Love With You 06. FLAC music for free and without tedious registration! Download flac music in lossless quality. Metallica, influential American heavy metal band that helped develop the subgenre speed metal in the early and mid-1980s and was known for pushing genre boundaries. Home » Metal » Metallica - Metallica (1991) Metallica - Metallica (1991) By Buccaneer 2 comments *Also known as "The Black Album" tags: metallica, the black album, metallica album, 1991, flac, It is an index to content. Digital audio compressed by FLAC’s algorithm can typically be reduced to 50–60% of its original size[4] and decompressed to an identical copy of the original audio data. Enter Sandman 02. Music critic Mike McGuirk (of the San Francisco Bay. Music in the format flac, Vinyl rip, Audio-DVD, Dts, a wide variety of genres, styles and directions, from hard rock to classics, new music, hits, as well as collections of popular music as lossless, with rich, deep, and before all good sound. Don't Bother Me - 02:33 05. The song deals with the theme of the struggle of the individual against the. METALLICA's LARS ULRICH Breaks Silence On 'Death Magnetic' Sound Quality Controversy. For Whom The Bell Tolls 04. Metallica - Bootleg Tracks - 06 - Hunger. Index of hindi flac. Metallica, never resting, never ceasing to innovate or amaze, returns with an extraordinary document of their concert with the San Francisco Symphony, available as a double album, a DVD and a VHS. Live Like An Angel - Die Like A Devil 09. Explore releases from the Not On Label (Metallica Self-released) label. try running a mesa preamp into a marshall power amp with a tiny bit of delay in it. Nothing Left by Immortal Suffering, released 25 May 2019. Entre sus principales influencias, destacan bandas como Metallica, Iron Maiden y Slayer. De la violence brute de Battery à l'instrumental et jazzy Orion (un des plus. As you might think, parameters in this example means, that the track numbers will be forced to a length of 2 digits and numbers less than 10 are filled up with "0". Spit Out The Bone Disc 3 1. Includes unlimited streaming of Spineless Pigs via the free Bandcamp app, plus high-quality download in MP3, FLAC and more. Subgenre: Concertos. 00 Peak level 100. drake-tickets. JUDAS PRIEST - HALFORD - FIGTH - TWO Audio - Video Bootleg 's + My List Collection of OFFICIAL CD. MP3 (MPEG1/2 Audio Layer 3) is an efficient and lossy compression format for digital audio, offers a variety of different bit rates, an MP3 file can also be encoded at higher or lower bit rates, with higher or lower resulting quality. mp3: Autograph: Turn Up the Radio: Monsters of Rock, Metal: MPEG 1 Layer III: Badlands - Dreams in the Dark. Infectors 5. Infernus by Hate Eternal, released 21 August 2015 1. PERFORMER “Metallica” INDEX 01 00:00:00 FILE “02. Lossless Albums » Hi-Res 24 bit » Dive Index - Waving at Airplanes (2020) Hi-Res Genres: Hi-Res 24 bit / Downtempo / Ambient/ New Age / Instrumental 2-06-2020, 16:10 67 Music_land All music Dive Index. Written-By - Justnyce. Replies: 0. Gorgoroth-Destroyer – Incipit Satan-Reissue-CD-FLAC-2008-SCORN Description : SCORN —- since 2011 Gorgoroth - Destroyer - Incipit Satan. FLAC is a free codec in the fullest sense. Metallica is offering soundboard recordings of live shows in FLAC format. [Flac] Heavy Metal + Cue - Progetto TNTMetal Autore: MotorHeadTitolo: DiscografiaAnno: Anni 1977-2010Genere: Heavy MetalELENCO ALBUM: 1977 Motorhead 1979 Overkill 1979 Bomber 1979 On Parole 1980 Ace Of Spades 1982 Iron Fist 1983 Another Perfect Day 1986 Orgasmatron 1987 Rock'n'Roll 1991 1916 1992 March Or Die 1993 Bastards 1995 Sacrifice 1996 Overnight Sensation 1998 Snake Bite Love 2000 We. From 1986 until 1992, Ronald had a residency in the lounge of Amsterdam's Apollo Hotel. Metallica - And Justice For All download mp3. The first track is a never before released demo from Little Boy Blue & The Blue Boys. - 5:32 Master of Puppets is the third studio. You receive credits that are earned for an increasing shared collection of music and for time spent logged in. Perhaps they hadn't yet. DATE: 2011-10-22. Metallica performed "I Disappear" 92 times from June 3, 2000 through August 10, 2013. Downloads will not work on mobile devices like an iPhone or iPad. No lyrics this time, but you can still enjoy this amazing piece of art. Thereafter there was no significant progress in Scorpio's recurrence board "Studio Daze Digitally Remastered" (LZ 01) to the extent that a take including the first appearance appears in plain before "Moby" performance, so far the audience recording Not to mention the single item as a '72 Long Beach performance is not released at all, and the SB appeared suddenly and it made me. [16 Bit - 44. wav) > dbPowerAmp (. 8 GB Metallica Discography STUDiO [2018] 10 CD FLAC 7. > - 10-Feb-2016 05:20. Nope, iTunes only supports audio like mp4, wav, aiff. Total Size: 5. Remember Tomorrow 5. On this release, Metallica's select favorites unfold like never before with the eloquent backing of The San Francisco Symphony. Yo uso "bitcomet" para bajar torrents, a traves de los torrents puedes bajas discos completos en mp3 o en Flac. 37 > FLAC 01 Jailbreak 02 It's Only Money 03 Emerald 04 The Boys Are Back In Town 05 Still In Love With You 06. ive seen people knock Qobuz but tbh i think they are just as good as HDTrack or 7Digital which seem to be people preffered method. 62 KB Metallica 1992-07-04 Weedsport, NY01. "The Unforgiven" is a power ballad by American heavy metal band Metallica. mp3 26-Jul-2008 21:40 5. mp3: 26-Jul-2008 19:50 : 1. Metallica - Live at Yankee Stadium (2011) Metallica - Live From Rock In Rio (2011) Metallica Live at Rock in Rio DVBC 09-25-2011-CMG; Metallica - Frantic (2003) (Ltd. The band has sold an estimated 100 million records worldwide as of the release of their latest album, Death Magnetic. Genre: Classical. Grossly oversimplified, FLAC is similar to MP3, but lossless, meaning that audio is compressed in FLAC without any loss in quality. The Stygian Deep 3. Infernus 6. > 24-Nov-2004 16:27 1. The first 10000 fans to register at MatisyahuLive. Harvester Of Sorrow 06. Digital audio compressed by FLAC’s algorithm can typically be reduced to 50–60% of its original size[4] and decompressed to an identical copy of the original audio data. 0 % Track quality 100. 1 kHz (Tracks) + FLAC 16 bit / 44. drake-tickets. Add to Cart Add to Shortlist. If by HD FLAC you mean a hi-resolution flac, you can convert the ripped CD to a higher bit depth and sample rate, but you won't gain anything, e. Grails 2019. DTI redefines drug toxicity, identifies hepatotoxic drugs, gives mechanistic insights, predicts clinical outcomes and has potential as a screening tool. Take 5 - Never Had It So Good. cue Битрейт аудио: lossless. Enjoy the music!. If you want to download the entire concert in FLAC, the easiest way is to use the "Lossless zip" link located on the left side of the page where it says, "Play / Download. flac w/ verify) Notes: This rip was created because of the backlash over the sound quality of the official release of Death Magnetic. flac 239 MB Metallica - Death Magnetic - 07 - The Unforgiven III. zip files 2) extracted all files from. Holier Than Thou 04. PRINCE (2) PROCOL HARUM (1) Mega was the upload site worth the effort and I am not re-upping. Sep 17, 2008 Death Magnetic Guitar Hero III FLAC rip Showing 1-110 of 110 messages. Tokyo String Quartet and David Watkin. FLAC (/ˈflæk/; Free Lossless Audio Codec) is an audio coding format for lossless compression of digital audio, and is also the name of the reference codec implementation. Also, you can play quality at 32kbps, 128kbps, 320kbps, 500kbps, view lyrics and watch more videos related. Master of Puppets was originally released on March 3rd, 1986, on Elektra Records and went on to become the first Metallica album to be certified Platinum by the RIAA. So in case of flac files the files will be named "01 - Enter Sandman. All links to.